藍光電影網

 找回密碼
 立即注冊

QQ登錄

只需一步,快速開始

搜索
熱搜: 活動 交友 discuz
查看: 27|回復: 0
打印 上一主題 下一主題

[動畫片] 獅子王/獅子王真人版 The.Lion.King.2019.3D.1080p.BluRay.x264-GUACAMOLE 9.84GB

[復制鏈接]

3萬

主題

3萬

帖子

4萬

積分

管理員

Rank: 9Rank: 9Rank: 9

積分
46044
跳轉到指定樓層
1#
發表于 2019-11-14 16:13:56 | 只看該作者 |只看大圖 回帖獎勵 |倒序瀏覽 |閱讀模式


譯  名 獅子王 / 獅子王真人版 / 獅子王實在版 / 獅子王真獅版
片  名 The Lion King
年  代 2019
產  地 美國
類  別 劇情 / 動畫 / 冒險
語  言 英語 / 科薩語
上映日期 2019-07-12(中國大陸) / 2019-07-19(美國)
IMDb評分7.1/10 from 104480 users
IMDb鏈接http://www.imdb.com/title/tt6105098
豆瓣評分 7.4/10 from 196500 users
豆瓣鏈接 https://movie.douban.com/subject/26884354/
片  長 118分鐘
導  演 喬恩·費儒 Jon Favreau
編  劇 杰夫·內桑森 Jeff Nathanson / 布蘭達?查普曼 Brenda Chapman / 艾琳·梅琪 Irene Mecchi / 喬納森·羅伯茨 Jonathan Roberts / 琳達·伍爾芙頓 Linda Woolverton
主  演 唐納德·格洛弗 Donald Glover
     阿爾法·伍達德 Alfre Woodard
     詹姆斯·厄爾·瓊斯 James Earl Jones
     切瓦特·埃加福特 Chiwetel Ejiofor
     科甘-邁克爾·凱 Keegan-Michael Key
     塞斯·羅根 Seth Rogen
     比利·艾希納 Billy Eichner
     碧昂絲·諾爾斯 Beyoncé Knowles
     埃里克·安德烈 Eric André
     弗洛倫絲·卡松巴 Florence Kasumba
     約翰·卡尼 John Kani
     約翰·奧利弗 John Oliver
     艾米·塞德麗絲 Amy Sedaris


標  簽 迪士尼 | 典范 | 動畫 | 童年 | 美國 | 長大 | 2019 | 動物

簡  介

  非洲大草原上一輪紅日冉冉升起,為高峻的乞力馬扎羅山披上層金色的光紗,一切的動物涌向了同一個地方——光榮石,興奮地期待著一個嚴重消息的公布:它們的國王木法沙將迎來自己的新生兒。
  這個新生兒就是小獅子辛巴,它是木法沙的法定接棒人、光榮石未來的國王。
  小獅子王辛巴在眾多熱情的朋友的陪伴下,不單履歷了生射中最名譽的時辰,也遭受了最艱難的應戰,最初終究成為了森林之王,也在循環往復生生不息的自然中體味誕生命的真義。

獲獎情況

  第5屆豆瓣電影年度榜單(2018)
  最值得期待的外語電影(提名)
  • Video
  • ID             : 1
  • Format           : AVC
  • Format/Info          : Advanced Video Codec
  • Format profile         : [email protected]
  • MultiView_Count        : 2
  • MultiView_Layout         : Side by Side (left eye first)
  • Format settings        : CABAC / 4 Ref Frames
  • Format settings, CABAC       : Yes
  • Format settings, Reference frames  : 4 frames
  • Codec ID           : V_MPEG4/ISO/AVC
  • Duration           : 1 h 58 min
  • Bit rate           : 10.4 Mb/s
  • Width            : 1 920 pixels
  • Height           : 1 080 pixels
  • Display aspect ratio       : 16:9
  • Frame rate mode        : Constant
  • Frame rate           : 23.976 FPS
  • Color space          : YUV
  • Chroma subsampling       : 4:2:0
  • Bit depth          : 8 bits
  • Scan type          : Progressive
  • Bits/(Pixel*Frame)       : 0.209
  • Stream size          : 8.58 GiB (87%)
  • Writing library        : x264 core 157 r2969 d4099dd
  • Encoding settings        : cabac=1 / ref=4 / deblock=1:-1:-1 / analyse=0x3:0x113 / me=umh / subme=8 / psy=1 / psy_rd=1.00:0.00 / mixed_ref=1 / me_range=16 / chroma_me=1 / trellis=2 / 8x8dct=1 / cqm=0 / deadzone=21,11 / fast_pskip=0 / chroma_qp_offset=-2 / threads=34 / lookahead_threads=5 / sliced_threads=0 / nr=0 / decimate=1 / interlaced=0 / bluray_compat=0 / constrained_intra=0 / bframes=5 / b_pyramid=2 / b_adapt=1 / b_bias=0 / direct=3 / weightb=1 / open_gop=0 / weightp=1 / keyint=250 / keyint_min=23 / scenecut=40 / intra_refresh=0 / rc_lookahead=40 / rc=2pass / mbtree=1 / bitrate=10391 / ratetol=1.0 / qcomp=0.60 / qpmin=0 / qpmax=69 / qpstep=4 / cplxblur=20.0 / qblur=0.5 / ip_ratio=1.40 / aq=1:1.00
  • Language           : English
  • Default            : Yes
  • Forced           : No
  • Audio
  • ID             : 2
  • Format           : DTS
  • Format/Info          : Digital Theater Systems
  • Codec ID           : A_DTS
  • Duration           : 1 h 58 min
  • Bit rate mode          : Constant
  • Bit rate           : 1 509 kb/s
  • Channel(s)           : 6 channels
  • Channel layout         : C L R Ls Rs LFE
  • Sampling rate          : 48.0 kHz
  • Frame rate           : 93.750 FPS (512 SPF)
  • Bit depth          : 24 bits
  • Compression mode         : Lossy
  • Stream size          : 1.25 GiB (13%)
  • Language           : English
  • Default            : Yes
  • Forced           : No
  • Menu
  • 00:00:00.000         : :Kapitel 01
  • 00:04:50.499         : :Kapitel 02
  • 00:10:51.067         : :Kapitel 03
  • 00:17:47.692         : :Kapitel 04
  • 00:23:53.015         : :Kapitel 05
  • 00:30:00.132         : :Kapitel 06
  • 00:33:05.066         : :Kapitel 07
  • 00:37:09.310         : :Kapitel 08
  • 00:43:42.912         : :Kapitel 09
  • 00:50:47.336         : :Kapitel 10
  • 00:55:02.716         : :Kapitel 11
  • 00:59:48.460         : :Kapitel 12
  • 01:06:27.233         : :Kapitel 13
  • 01:14:32.093         : :Kapitel 14
  • 01:18:26.410         : :Kapitel 15
  • 01:23:07.900         : :Kapitel 16
  • 01:28:04.654         : :Kapitel 17
  • 01:33:10.877         : :Kapitel 18
  • 01:37:13.745         : :Kapitel 19
  • 01:44:39.190         : :Kapitel 20
  • 01:47:47.336         : :Kapitel 21











分享到:  QQ好友和群QQ好友和群
收藏收藏
字幕下載網站---點這里進入
回復

使用道具 舉報

您需要登錄后才可以回帖 登錄 | 立即注冊

本版積分規則

QQ|Archiver|手機版|小黑屋|藍光電影網

GMT+8, 2019-11-25 04:20 , Processed in 0.053404 second(s), 20 queries .

Powered by Discuz! X3.4

© 2001-2017 Comsenz Inc.

快速回復 返回頂部 返回列表
湖北11选五任五预测