藍光電影網

 找回密碼
 立即注冊

QQ登錄

只需一步,快速開始

搜索
熱搜: 活動 交友 discuz
查看: 84|回復: 0
打印 上一主題 下一主題

[10bit.HDR] 國際空間街/太空街 IMAX.Space.Station.2002.DOCU.2160p.UHD.BluRay.X265.10bit.HDR.DTS-X.5.1-JustWatch 7.57GB

[復制鏈接]

3萬

主題

3萬

帖子

4萬

積分

管理員

Rank: 9Rank: 9Rank: 9

積分
46044
跳轉到指定樓層
1#
發表于 2019-11-14 15:42:06 | 只看該作者 |只看大圖 回帖獎勵 |倒序瀏覽 |閱讀模式


譯  名 國際空間街 / 太空街
片  名 Space Station 3D
年  代 2002
產  地 加拿大 / 美國
類  別 記載片
語  言 英語
上映日期 2002-04-17
IMDb評分7.5/10 from 1457 users
IMDb鏈接http://www.imdb.com/title/tt0290296
豆瓣評分 8.3/10 from 908 users
豆瓣鏈接 https://movie.douban.com/subject/1419880/
片  長 47 分鐘
導  演 Toni Myers
編  劇 Toni Myers
主  演 Tom Cruise


標  簽 記載片 | IMAX | 美國 | 科普 | 太空 | 3D | 2002 | IMAX3D

簡  介

  《國際空間街》是由美國IMAX公司拍攝3D記載片,它再現列國宇航員在圍太空飛行的宇宙空間街上的平常生活。影片展現的完全分歧與地球上的生活狀態,令觀眾不足為奇,布滿著風趣的細節。影片由IMAX巨幅銀幕復原的影象,傳神的視覺結果可以令觀眾忘記現實,恍如也身處美好的失重天下當中。

  • Video
  • ID             : 1
  • Format           : HEVC
  • Format/Info          : High Efficiency Video Coding
  • Format profile         : Main [email protected]@High
  • HDR format           : SMPTE ST 2086, HDR10 compatible
  • Codec ID           : V_MPEGH/ISO/HEVC
  • Duration           : 47 min 15 s
  • Bit rate           : 16.0 Mb/s
  • Width            : 3 840 pixels
  • Height           : 2 160 pixels
  • Display aspect ratio       : 16:9
  • Frame rate mode        : Constant
  • Frame rate           : 23.976 (24000/1001) FPS
  • Color space          : YUV
  • Chroma subsampling       : 4:2:0 (Type 2)
  • Bit depth          : 10 bits
  • Bits/(Pixel*Frame)       : 0.080
  • Stream size          : 5.28 GiB (70%)
  • Writing library        : x265 3.14f6dde51a5db:[Windows][GCC 6.3.0][64 bit] 10bit
  • Encoding settings        : cpuid=1049583 / frame-threads=6 / numa-pools=32 / wpp / no-pmode / no-pme / no-psnr / no-ssim / log-level=2 / input-csp=1 / input-res=3840x2160 / interlace=0 / total-frames=67975 / level-idc=51 / high-tier=1 / uhd-bd=0 / ref=4 / no-allow-non-conformance / repeat-headers / annexb / aud / hrd / info / hash=0 / no-temporal-layers / no-open-gop / min-keyint=24 / keyint=240 / gop-lookahead=0 / bframes=4 / b-adapt=2 / b-pyramid / bframe-bias=0 / rc-lookahead=25 / lookahead-slices=4 / scenecut=40 / radl=0 / no-splice / no-intra-refresh / ctu=64 / min-cu-size=8 / rect / no-amp / max-tu-size=32 / tu-inter-depth=1 / tu-intra-depth=1 / limit-tu=0 / rdoq-level=2 / dynamic-rd=0.00 / no-ssim-rd / signhide / no-tskip / nr-intra=0 / nr-inter=0 / no-constrained-intra / no-strong-intra-smoothing / max-merge=3 / limit-refs=3 / limit-modes / me=3 / subme=3 / merange=57 / temporal-mvp / weightp / no-weightb / no-analyze-src-pics / deblock=-3:-3 / no-sao / no-sao-non-deblock / rd=4 / no-early-skip / rskip / no-fast-intra / no-tskip-fast / no-cu-lossless / no-b-intra / no-splitrd-skip / rdpenalty=0 / psy-rd=2.00 / psy-rdoq=1.00 / no-rd-refine / no-lossless / cbqpoffs=0 / crqpoffs=0 / rc=crf / crf=17.0 / qcomp=0.60 / qpstep=4 / stats-write=0 / stats-read=0 / vbv-maxrate=160000 / vbv-bufsize=160000 / vbv-init=0.9 / crf-max=0.0 / crf-min=0.0 / ipratio=1.40 / pbratio=1.30 / aq-mode=2 / aq-strength=1.00 / cutree / zone-count=0 / no-strict-cbr / qg-size=32 / no-rc-grain / qpmax=69 / qpmin=0 / no-const-vbv / sar=1 / overscan=0 / videoformat=5 / range=0 / colorprim=9 / transfer=16 / colormatrix=9 / chromaloc=1 / chromaloc-top=2 / chromaloc-bottom=2 / display-window=0 / master-display=G(13250,34500)B(7500,3000)R(34000,16000)WP(15635,16450)L(10000000,50)cll=1000,300 / min-luma=0 / max-luma=1023 / log2-max-poc-lsb=8 / vui-timing-info / vui-hrd-info / slices=1 / no-opt-qp-pps / no-opt-ref-list-length-pps / no-multi-pass-opt-rps / scenecut-bias=0.05 / no-opt-cu-delta-qp / no-aq-motion / hdr / hdr-opt / no-dhdr10-opt / no-idr-recovery-sei / analysis-reuse-level=5 / scale-factor=0 / refine-intra=0 / refine-inter=0 / refine-mv=0 / refine-ctu-distortion=0 / no-limit-sao / ctu-info=0 / no-lowpass-dct / refine-analysis-type=0 / copy-pic=1 / max-ausize-factor=1.0 / no-dynamic-refine / no-single-sei / no-hevc-aq / no-svt / no-field / qp-adaptation-range=1.00
  • Default            : Yes
  • Forced           : No
  • Color range          : Limited
  • Color primaries        : BT.2020
  • Transfer characteristics     : PQ
  • Matrix coefficients        : BT.2020 non-constant
  • Mastering display color primaries  : Display P3
  • Mastering display luminance    : min: 0.0050 cd/m2, max: 1000 cd/m2
  • Maximum Content Light Level    : 1000 cd/m2
  • Maximum Frame-Average Light Level  : 300 cd/m2
  • Audio #1
  • ID             : 2
  • Format           : DTS XLL
  • Format/Info          : Digital Theater Systems
  • Commercial name        : DTS-HD Master Audio
  • Codec ID           : A_DTS
  • Duration           : 47 min 10 s
  • Bit rate mode          : Variable
  • Bit rate           : 4 725 kb/s
  • Channel(s)           : 6 channels
  • Channel layout         : C L R Ls Rs LFE
  • Sampling rate          : 48.0 kHz
  • Frame rate           : 93.750 FPS (512 SPF)
  • Bit depth          : 24 bits
  • Compression mode         : Lossless
  • Stream size          : 1.56 GiB (21%)
  • Title            : Surround 5.1
  • Language           : English
  • Default            : Yes
  • Forced           : No
  • Audio #2
  • ID             : 3
  • Format           : DTS XLL
  • Format/Info          : Digital Theater Systems
  • Commercial name        : DTS-HD Master Audio
  • Codec ID           : A_DTS
  • Duration           : 47 min 10 s
  • Bit rate mode          : Variable
  • Bit rate           : 1 993 kb/s
  • Channel(s)           : 2 channels
  • Channel layout         : L R
  • Sampling rate          : 48.0 kHz
  • Frame rate           : 93.750 FPS (512 SPF)
  • Bit depth          : 24 bits
  • Compression mode         : Lossless
  • Stream size          : 673 MiB (9%)
  • Title            : Stereo
  • Language           : English
  • Default            : No
  • Forced           : No
  • Text #1
  • ID             : 4
  • Format           : PGS
  • Muxing mode          : zlib
  • Codec ID           : S_HDMV/PGS
  • Codec ID/Info          : Picture based subtitle format used on BDs/HD-DVDs
  • Duration           : 45 min 24 s
  • Bit rate           : 64.2 kb/s
  • Count of elements        : 1546
  • Stream size          : 20.9 MiB (0%)
  • Language           : English
  • Default            : No
  • Forced           : No
  • Text #2
  • ID             : 5
  • Format           : PGS
  • Muxing mode          : zlib
  • Codec ID           : S_HDMV/PGS
  • Codec ID/Info          : Picture based subtitle format used on BDs/HD-DVDs
  • Duration           : 43 min 26 s
  • Bit rate           : 67.7 kb/s
  • Count of elements        : 1466
  • Stream size          : 21.0 MiB (0%)
  • Language           : French
  • Default            : No
  • Forced           : No
  • Text #3
  • ID             : 6
  • Format           : PGS
  • Muxing mode          : zlib
  • Codec ID           : S_HDMV/PGS
  • Codec ID/Info          : Picture based subtitle format used on BDs/HD-DVDs
  • Duration           : 43 min 26 s
  • Bit rate           : 69.2 kb/s
  • Count of elements        : 1548
  • Stream size          : 21.5 MiB (0%)
  • Language           : Spanish
  • Default            : No
  • Forced           : No
  • Text #4
  • ID             : 7
  • Format           : PGS
  • Muxing mode          : zlib
  • Codec ID           : S_HDMV/PGS
  • Codec ID/Info          : Picture based subtitle format used on BDs/HD-DVDs
  • Duration           : 44 min 58 s
  • Bit rate           : 69.9 kb/s
  • Count of elements        : 1530
  • Stream size          : 22.5 MiB (0%)
  • Language           : German
  • Default            : No
  • Forced           : No
  • Menu
  • 00:00:00.000         : en:Chapter 01
  • 00:06:34.644         : en:Chapter 02
  • 00:14:41.005         : en:Chapter 03
  • 00:23:25.862         : en:Chapter 04
  • 00:29:30.268         : en:Chapter 05
  • 00:45:22.052         : en:Chapter 06
  • 00:47:11.036         : en:Chapter 07










分享到:  QQ好友和群QQ好友和群
收藏收藏
字幕下載網站---點這里進入
回復

使用道具 舉報

您需要登錄后才可以回帖 登錄 | 立即注冊

本版積分規則

QQ|Archiver|手機版|小黑屋|藍光電影網

GMT+8, 2019-11-25 03:58 , Processed in 0.057724 second(s), 20 queries .

Powered by Discuz! X3.4

© 2001-2017 Comsenz Inc.

快速回復 返回頂部 返回列表
湖北11选五任五预测