藍光電影網

 找回密碼
 立即注冊

QQ登錄

只需一步,快速開始

搜索
熱搜: 活動 交友 discuz
查看: 356|回復: 0
打印 上一主題 下一主題

[科幻片] 哥斯拉2:怪獸之王 Godzilla.King.of.the.Monsters.2019.1080p.3D.BluRay.Half-OU.x264.DTS-HD.MA.7.1-FGT 22.32GB

[復制鏈接]

3萬

主題

3萬

帖子

4萬

積分

管理員

Rank: 9Rank: 9Rank: 9

積分
46044
跳轉到指定樓層
1#
發表于 2019-9-12 11:16:45 | 只看該作者 回帖獎勵 |倒序瀏覽 |閱讀模式


譯  名 哥斯拉2:怪獸之王 / Godzilla 2 / 哥吉拉II怪獸之王(臺) / 哥斯拉2 / 哥斯拉2018 / 哥斯拉II: 王者巨獸(港) / 哥斯拉:怪獸之王
片  名 Godzilla: King of the Monsters
年  代 2019
產  地 美國
類  別 行動 / 科幻 / 冒險 / 災難
語  言 英語
上映日期 2019-05-25(大范圍點映) / 2019-05-31(中國大陸/美國)
IMDb評分6.6/10 from 52008 users
IMDb鏈接http://www.imdb.com/title/tt3741700
豆瓣評分 6.4/10 from 140382 users
豆瓣鏈接 https://movie.douban.com/subject/25890017/
片  長 132分鐘
導  演 邁克爾·道赫蒂 Michael Dougherty
編  劇 邁克爾·道赫蒂 Michael Dougherty / 扎克·希爾茲 Zach Shields / 麥克思·鮑倫斯坦 Max Borenstein
主  演 凱爾·錢德勒 Kyle Chandler
      維拉·法米加 Vera Farmiga
      米莉·波比·布朗 Millie Bobby Brown
      章子怡 Ziyi Zhang
      渡邊謙 Ken Watanabe
      布萊德利·惠特福德 Bradley Whitford
      托馬斯·米德蒂奇 Thomas Middleditch
      艾莎·辛德斯 Aisha Hinds
      莎莉·霍金斯 Sally Hawkins
      查爾斯·丹斯 Charles Dance
      大衛·斯特雷澤恩 David Strathairn
      小奧謝拉·杰克遜 O'Shea Jackson Jr.
      希·龐德 CCH Pounder
      安東尼·拉莫斯 Anthony Ramos
      杰森·萊爾斯 Jason Liles
      喬納森·霍華德 Jonathan Howard
      萊爾·布羅卡托 Lyle Brocato
      蘭德爾·P·海文斯 Randall P. Havens
      T·C·馬特恩 T.C. Matherne
      吉米·岡薩雷斯 Jimmy Gonzales
      薩莎·里翁達 Sasha Rionda
      文斯·福斯特 Vince Foster
      賈斯蒂斯·利克 Justice Leak
      菲奧娜·哈丁漢姆 Fiona Hardingham
      露西·卡羅爾 Lucie Carroll
      約書亞·利瑞 Joshua Leary
      艾倫·馬克森 Alan Maxson
      肯尼斯·以色列 Kenneth Israel
      阿爾·維森特 Al Vicente
      塞西爾·M·亨利 Cecil M. Henry
      邁克爾·大衛·育爾 Michael David Yuhl
      本杰明·韋弗 Benjamin Weaver
      卡梅倫·布魯姆布羅 Cameron Brumbelow
      帕蒂·舍爾哈斯 Patti Schellhaas
      理查德·多頓 Richard Dorton
      詹姆斯·斯特林 James Sterling
      麥克斯韋·海史姑娘 Maxwell Highsmith
      賈斯汀·斯勞特 Justin Slaughter
      肖恩·索斯 Shawn South
      馬科·查卡 Marko Caka
      蒂莫西·卡爾 Timothy Carr


標  簽 怪獸 | 科幻 | 災難 | 美國 | 2019 | 殊效 | 行動 | 日本

簡  介

  隨著《哥斯拉》和《金剛:骷髏島》在全球范圍內獲得成功,傳奇影業和華納兄弟影業聯手開啟了怪獸宇宙系列電影的新篇章—一部史詩級行動冒險巨制。在這部電影中,哥斯拉將和眾多大師在風行文化中所熟知的怪獸展開較勁。全新故事中,研討奧秘動物學的機構“帝王構造”將勇敢直面巨型怪獸,其中強大的哥斯拉也將和魔斯拉、拉頓和它的死對頭——三頭王者基多拉展開劇烈匹敵。當這些只存在于傳聞里的超級生物再度突起時,它們將展開王者爭霸,人類的命運朝不保夕……

  • Video
  • ID             : 1
  • Format           : AVC
  • Format/Info          : Advanced Video Codec
  • Format profile         : <a href="/cdn-cgi/l/email-protection" class="__cf_email__" data-cfemail="377f5e505f777b031906">[email protected]</a>
  • Format settings        : CABAC / 3 Ref Frames
  • Format settings, CABAC       : Yes
  • Format settings, Reference frames  : 3 frames
  • Codec ID           : V_MPEG4/ISO/AVC
  • Duration           : 2 h 11 min
  • Bit rate           : 16.0 Mb/s
  • Width            : 1 920 pixels
  • Height           : 1 080 pixels
  • Display aspect ratio       : 16:9
  • Frame rate mode        : Constant
  • Frame rate           : 23.976 (24000/1001) FPS
  • Color space          : YUV
  • Chroma subsampling       : 4:2:0
  • Bit depth          : 8 bits
  • Scan type          : Progressive
  • Bits/(Pixel*Frame)       : 0.322
  • Stream size          : 14.6 GiB (66%)
  • Title            : Godzilla.King.of.the.Monsters.2019.1080p.3D.BluRay.Half-OU.x264.DTS-HD.MA.7.1-FGT
  • Writing library        : x264 core 148
  • Encoding settings        : cabac=1 / ref=3 / deblock=1:-1:-1 / analyse=0x3:0 / me=hex / subme=5 / psy=1 / psy_rd=1.00:0.00 / mixed_ref=0 / me_range=16 / chroma_me=1 / trellis=1 / 8x8dct=1 / cqm=0 / deadzone=21,11 / fast_pskip=0 / chroma_qp_offset=0 / threads=24 / lookahead_threads=6 / sliced_threads=0 / nr=0 / decimate=1 / interlaced=0 / bluray_compat=0 / constrained_intra=0 / bframes=2 / b_pyramid=0 / b_adapt=1 / b_bias=0 / direct=1 / weightb=0 / open_gop=0 / weightp=0 / keyint=24 / keyint_min=2 / scenecut=40 / intra_refresh=0 / rc=abr / mbtree=0 / bitrate=16000 / ratetol=1.0 / qcomp=0.60 / qpmin=0 / qpmax=69 / qpstep=4 / ip_ratio=1.40 / pb_ratio=1.30 / aq=1:1.00
  • Default            : Yes
  • Forced           : No
  • Color range          : Limited
  • Color primaries        : BT.709
  • Transfer characteristics     : BT.709
  • Matrix coefficients        : BT.709
  • Audio #1
  • ID             : 2
  • Format           : DTS XLL
  • Format/Info          : Digital Theater Systems
  • Commercial name        : DTS-HD Master Audio
  • Codec ID           : A_DTS
  • Duration           : 2 h 11 min
  • Bit rate mode          : Variable
  • Bit rate           : 3 901 kb/s
  • Channel(s)           : 8 channels
  • Channel layout         : C L R LFE Lb Rb Lss Rss
  • Sampling rate          : 48.0 kHz
  • Frame rate           : 93.750 FPS (512 SPF)
  • Bit depth          : 24 bits
  • Compression mode         : Lossless
  • Stream size          : 3.59 GiB (16%)
  • Title            : Godzilla.King.of.the.Monsters.2019.1080p.3D.BluRay.Half-OU.x264.DTS-HD.MA.7.1-FGT
  • Language           : English
  • Default            : Yes
  • Forced           : No
  • Audio #2
  • ID             : 3
  • Format           : AC-3
  • Format/Info          : Audio Coding 3
  • Commercial name        : Dolby Digital
  • Codec ID           : A_AC3
  • Duration           : 2 h 11 min
  • Bit rate mode          : Constant
  • Bit rate           : 448 kb/s
  • Channel(s)           : 6 channels
  • Channel layout         : L R C LFE Ls Rs
  • Sampling rate          : 48.0 kHz
  • Frame rate           : 31.250 FPS (1536 SPF)
  • Bit depth          : 16 bits
  • Compression mode         : Lossy
  • Stream size          : 422 MiB (2%)
  • Title            : Godzilla.King.of.the.Monsters.2019.1080p.3D.BluRay.Half-OU.x264.DTS-HD.MA.7.1-FGT
  • Language           : English
  • Service kind         : Complete Main
  • Default            : No
  • Forced           : No
  • Audio #3
  • ID             : 4
  • Format           : AC-3
  • Format/Info          : Audio Coding 3
  • Commercial name        : Dolby Digital
  • Codec ID           : A_AC3
  • Duration           : 2 h 11 min
  • Bit rate mode          : Constant
  • Bit rate           : 448 kb/s
  • Channel(s)           : 6 channels
  • Channel layout         : L R C LFE Ls Rs
  • Sampling rate          : 48.0 kHz
  • Frame rate           : 31.250 FPS (1536 SPF)
  • Bit depth          : 16 bits
  • Compression mode         : Lossy
  • Stream size          : 422 MiB (2%)
  • Title            : Godzilla.King.of.the.Monsters.2019.1080p.3D.BluRay.Half-OU.x264.DTS-HD.MA.7.1-FGT
  • Language           : French
  • Service kind         : Complete Main
  • Default            : No
  • Forced           : No
  • Audio #4
  • ID             : 5
  • Format           : DTS XLL
  • Format/Info          : Digital Theater Systems
  • Commercial name        : DTS-HD Master Audio
  • Codec ID           : A_DTS
  • Duration           : 2 h 11 min
  • Bit rate mode          : Variable
  • Bit rate           : 2 350 kb/s
  • Channel(s)           : 6 channels
  • Channel layout         : C L R Ls Rs LFE
  • Sampling rate          : 48.0 kHz
  • Frame rate           : 93.750 FPS (512 SPF)
  • Bit depth          : 16 bits
  • Compression mode         : Lossless
  • Stream size          : 2.16 GiB (10%)
  • Title            : Godzilla.King.of.the.Monsters.2019.1080p.3D.BluRay.Half-OU.x264.DTS-HD.MA.7.1-FGT
  • Language           : German
  • Default            : No
  • Forced           : No
  • Audio #5
  • ID             : 6
  • Format           : AC-3
  • Format/Info          : Audio Coding 3
  • Commercial name        : Dolby Digital
  • Codec ID           : A_AC3
  • Duration           : 2 h 11 min
  • Bit rate mode          : Constant
  • Bit rate           : 192 kb/s
  • Channel(s)           : 2 channels
  • Channel layout         : L R
  • Sampling rate          : 48.0 kHz
  • Frame rate           : 31.250 FPS (1536 SPF)
  • Bit depth          : 16 bits
  • Compression mode         : Lossy
  • Stream size          : 181 MiB (1%)
  • Title            : Godzilla.King.of.the.Monsters.2019.1080p.3D.BluRay.Half-OU.x264.DTS-HD.MA.7.1-FGT
  • Language           : German
  • Service kind         : Complete Main
  • Default            : No
  • Forced           : No
  • Audio #6
  • ID             : 7
  • Format           : AC-3
  • Format/Info          : Audio Coding 3
  • Commercial name        : Dolby Digital
  • Codec ID           : A_AC3
  • Duration           : 2 h 11 min
  • Bit rate mode          : Constant
  • Bit rate           : 448 kb/s
  • Channel(s)           : 6 channels
  • Channel layout         : L R C LFE Ls Rs
  • Sampling rate          : 48.0 kHz
  • Frame rate           : 31.250 FPS (1536 SPF)
  • Bit depth          : 16 bits
  • Compression mode         : Lossy
  • Stream size          : 422 MiB (2%)
  • Title            : Godzilla.King.of.the.Monsters.2019.1080p.3D.BluRay.Half-OU.x264.DTS-HD.MA.7.1-FGT
  • Language           : Spanish
  • Service kind         : Complete Main
  • Default            : No
  • Forced           : No
  • Audio #7
  • ID             : 8
  • Format           : AC-3
  • Format/Info          : Audio Coding 3
  • Commercial name        : Dolby Digital
  • Codec ID           : A_AC3
  • Duration           : 2 h 11 min
  • Bit rate mode          : Constant
  • Bit rate           : 448 kb/s
  • Channel(s)           : 6 channels
  • Channel layout         : L R C LFE Ls Rs
  • Sampling rate          : 48.0 kHz
  • Frame rate           : 31.250 FPS (1536 SPF)
  • Bit depth          : 16 bits
  • Compression mode         : Lossy
  • Stream size          : 422 MiB (2%)
  • Title            : Godzilla.King.of.the.Monsters.2019.1080p.3D.BluRay.Half-OU.x264.DTS-HD.MA.7.1-FGT
  • Language           : Thai
  • Service kind         : Complete Main
  • Default            : No
  • Forced           : No
  • Text #1
  • ID             : 9
  • Format           : PGS
  • Muxing mode          : zlib
  • Codec ID           : S_HDMV/PGS
  • Codec ID/Info          : Picture based subtitle format used on BDs/HD-DVDs
  • Duration           : 2 h 11 min
  • Bit rate           : 41.9 kb/s
  • Count of elements        : 3322
  • Stream size          : 39.3 MiB (0%)
  • Title            : English-PGS
  • Language           : English
  • Default            : Yes
  • Forced           : No
  • Text #2
  • ID             : 10
  • Format           : PGS
  • Muxing mode          : zlib
  • Codec ID           : S_HDMV/PGS
  • Codec ID/Info          : Picture based subtitle format used on BDs/HD-DVDs
  • Duration           : 2 h 10 min
  • Bit rate           : 30.8 kb/s
  • Count of elements        : 2552
  • Stream size          : 28.9 MiB (0%)
  • Title            : French-PGS
  • Language           : French
  • Default            : No
  • Forced           : No
  • Text #3
  • ID             : 11
  • Format           : PGS
  • Muxing mode          : zlib
  • Codec ID           : S_HDMV/PGS
  • Codec ID/Info          : Picture based subtitle format used on BDs/HD-DVDs
  • Duration           : 2 h 11 min
  • Bit rate           : 41.4 kb/s
  • Count of elements        : 2682
  • Stream size          : 38.9 MiB (0%)
  • Title            : German-PGS
  • Language           : German
  • Default            : No
  • Forced           : No
  • Text #4
  • ID             : 12
  • Format           : PGS
  • Muxing mode          : zlib
  • Codec ID           : S_HDMV/PGS
  • Codec ID/Info          : Picture based subtitle format used on BDs/HD-DVDs
  • Duration           : 2 h 10 min
  • Bit rate           : 31.5 kb/s
  • Count of elements        : 2490
  • Stream size          : 29.5 MiB (0%)
  • Title            : Chinese-PGS
  • Language           : Chinese
  • Default            : No
  • Forced           : No
  • Text #5
  • ID             : 13
  • Format           : PGS
  • Muxing mode          : zlib
  • Codec ID           : S_HDMV/PGS
  • Codec ID/Info          : Picture based subtitle format used on BDs/HD-DVDs
  • Duration           : 2 h 10 min
  • Bit rate           : 30.0 kb/s
  • Count of elements        : 2816
  • Stream size          : 28.1 MiB (0%)
  • Title            : Chinese-PGS
  • Language           : Chinese
  • Default            : No
  • Forced           : No
  • Text #6
  • ID             : 14
  • Format           : PGS
  • Muxing mode          : zlib
  • Codec ID           : S_HDMV/PGS
  • Codec ID/Info          : Picture based subtitle format used on BDs/HD-DVDs
  • Duration           : 2 h 10 min
  • Bit rate           : 22.2 kb/s
  • Count of elements        : 2718
  • Stream size          : 20.8 MiB (0%)
  • Title            : Korean-PGS
  • Language           : Korean
  • Default            : No
  • Forced           : No
  • Text #7
  • ID             : 15
  • Format           : PGS
  • Muxing mode          : zlib
  • Codec ID           : S_HDMV/PGS
  • Codec ID/Info          : Picture based subtitle format used on BDs/HD-DVDs
  • Duration           : 2 h 10 min
  • Bit rate           : 36.0 kb/s
  • Count of elements        : 2784
  • Stream size          : 33.7 MiB (0%)
  • Title            : Spanish-PGS
  • Language           : Spanish
  • Default            : No
  • Forced           : No
  • Text #8
  • ID             : 16
  • Format           : PGS
  • Muxing mode          : zlib
  • Codec ID           : S_HDMV/PGS
  • Codec ID/Info          : Picture based subtitle format used on BDs/HD-DVDs
  • Duration           : 2 h 10 min
  • Bit rate           : 31.3 kb/s
  • Count of elements        : 2020
  • Stream size          : 29.3 MiB (0%)
  • Title            : Danish-PGS
  • Language           : Danish
  • Default            : No
  • Forced           : No
  • Text #9
  • ID             : 17
  • Format           : PGS
  • Muxing mode          : zlib
  • Codec ID           : S_HDMV/PGS
  • Codec ID/Info          : Picture based subtitle format used on BDs/HD-DVDs
  • Duration           : 2 h 10 min
  • Bit rate           : 38.1 kb/s
  • Count of elements        : 2706
  • Stream size          : 35.6 MiB (0%)
  • Title            : Finnish-PGS
  • Language           : Finnish
  • Default            : No
  • Forced           : No
  • Text #10
  • ID             : 18
  • Format           : PGS
  • Muxing mode          : zlib
  • Codec ID           : S_HDMV/PGS
  • Codec ID/Info          : Picture based subtitle format used on BDs/HD-DVDs
  • Duration           : 2 h 10 min
  • Bit rate           : 30.2 kb/s
  • Count of elements        : 2168
  • Stream size          : 28.2 MiB (0%)
  • Title            : Norwegian-PGS
  • Language           : Norwegian
  • Default            : No
  • Forced           : No
  • Text #11
  • ID             : 19
  • Format           : PGS
  • Muxing mode          : zlib
  • Codec ID           : S_HDMV/PGS
  • Codec ID/Info          : Picture based subtitle format used on BDs/HD-DVDs
  • Duration           : 2 h 10 min
  • Bit rate           : 32.7 kb/s
  • Count of elements        : 2726
  • Stream size          : 30.6 MiB (0%)
  • Title            : Swedish-PGS
  • Language           : Swedish
  • Default            : No
  • Forced           : No
  • Text #12
  • ID             : 20
  • Format           : PGS
  • Muxing mode          : zlib
  • Codec ID           : S_HDMV/PGS
  • Codec ID/Info          : Picture based subtitle format used on BDs/HD-DVDs
  • Duration           : 2 h 10 min
  • Bit rate           : 32.9 kb/s
  • Count of elements        : 2802
  • Stream size          : 30.7 MiB (0%)
  • Title            : Thai-PGS
  • Language           : Thai
  • Default            : No
  • Forced           : No
  • Text #13
  • ID             : 21
  • Format           : PGS
  • Muxing mode          : zlib
  • Codec ID           : S_HDMV/PGS
  • Codec ID/Info          : Picture based subtitle format used on BDs/HD-DVDs
  • Duration           : 2 h 5 min
  • Bit rate           : 668 b/s
  • Count of elements        : 36
  • Stream size          : 613 KiB (0%)
  • Title            : French-FORCED-PGS
  • Language           : French
  • Default            : No
  • Forced           : No
  • Text #14
  • ID             : 22
  • Format           : PGS
  • Muxing mode          : zlib
  • Codec ID           : S_HDMV/PGS
  • Codec ID/Info          : Picture based subtitle format used on BDs/HD-DVDs
  • Duration           : 1 h 29 min
  • Bit rate           : 602 b/s
  • Count of elements        : 22
  • Stream size          : 395 KiB (0%)
  • Title            : German-FORCED-PGS
  • Language           : German
  • Default            : No
  • Forced           : No
  • Menu
  • 00:00:00.000         : en:Chapter 01
  • 00:10:53.903         : en:Chapter 02
  • 00:18:06.502         : en:Chapter 03
  • 00:30:26.991         : en:Chapter 04
  • 00:45:18.507         : en:Chapter 05
  • 00:54:11.039         : en:Chapter 06
  • 01:05:41.646         : en:Chapter 07
  • 01:09:31.584         : en:Chapter 08
  • 01:19:31.099         : en:Chapter 09
  • 01:30:05.983         : en:Chapter 10
  • 01:38:36.785         : en:Chapter 11
  • 01:49:58.883         : en:Chapter 12
  • 01:59:28.828         : en:Chapter 13








分享到:  QQ好友和群QQ好友和群
收藏收藏
字幕下載網站---點這里進入
回復

使用道具 舉報

您需要登錄后才可以回帖 登錄 | 立即注冊

本版積分規則

QQ|Archiver|手機版|小黑屋|藍光電影網

GMT+8, 2019-11-25 04:09 , Processed in 0.043830 second(s), 20 queries .

Powered by Discuz! X3.4

© 2001-2017 Comsenz Inc.

快速回復 返回頂部 返回列表
湖北11选五任五预测