藍光電影網

 找回密碼
 立即注冊

QQ登錄

只需一步,快速開始

搜索
熱搜: 活動 交友 discuz
查看: 270|回復: 0
打印 上一主題 下一主題

[2160p-WEB] 安娜 Anna.2019.INTERNAL.HDR.2160p.WEB.X265-DEFLATE 12.86GB

[復制鏈接]

3萬

主題

3萬

帖子

4萬

積分

管理員

Rank: 9Rank: 9Rank: 9

積分
46044
跳轉到指定樓層
1#
發表于 2019-9-12 10:43:52 | 只看該作者 回帖獎勵 |倒序瀏覽 |閱讀模式


譯  名 安娜
片  名 Anna
年  代 2019
產  地 法國 / 美國
類  別 行動 / 驚悚
語  言 英語 / 俄語
上映日期 2019-06-21(美國) / 2019-07-10(法國)
IMDb評分6.6/10 from 8495 users
IMDb鏈接http://www.imdb.com/title/tt7456310
豆瓣評分 7.6/10 from 979 users
豆瓣鏈接 https://movie.douban.com/subject/27166976/
片  長 119分鐘
導  演 呂克·貝松 Luc Besson
編  劇 呂克·貝松 Luc Besson
主  演 薩莎·露絲 Sasha Luss
     海倫·米倫 Helen Mirren
     盧克·伊萬斯 Luke Evans
     基里安·墨菲 Cillian Murphy
     亞歷山大·佩特羅夫 Alexander Petrov
     艾力克·高敦 Eric Godon
     伊凡·弗拉內克 Ivan Franek
     Jean-Baptiste Puech
     阿德里安·坎恩 Adrian Can
     安德魯·霍華德 Andrew Howard
     保利妮·霍勞 Pauline Hoarau
     雷吉爾·庫迪烏 Réginal Kudiwu
     耶斯·利奧丹 Jess Liaudin
     魯伯特·韋恩-詹姆斯 Rupert Wynne-James
     埃文特·斯特朗 Avant Strangel
     詹·奧利弗·施羅德 Jan Oliver Schroeder
     克里斯多夫·泰克 Christophe Tek
     詹姆斯·喬因特 James Joint
     謝爾蓋·巴切烏爾斯基 Sergey Bachurskiy
     扎克·安德里亞納索洛 Zac Andrianasolo
     萊拉·阿波瓦 Lera Abova
     Nikita Pavlenko
     Anna Krippa
     Aleksey Maslodudov
     Alison Wheeler
     Travis Kerschen


標  簽 呂克·貝松 | 行動 | 法國 | 2019 | 懸疑 | 電影 | 驚悚 | 限制級

簡  介

  故事聚焦奧秘女殺手安娜的長大及履行各類暗殺使命的履歷,在美麗的表面下,安娜具有聰明絕頂的腦筋和強大的戰役技能,是天下上最可駭的刺客之一,她游走于黑白兩道,只要被鎖定的方針,從不失手。
  • Video
  • ID             : 1
  • Format           : HEVC
  • Format/Info          : High Efficiency Video Coding
  • Format profile         : Main <a href="/cdn-cgi/l/email-protection" class="__cf_email__" data-cfemail="330203737f06">[email protected]</a>@Main
  • HDR format           : SMPTE ST 2086, HDR10 compatible
  • Codec ID           : V_MPEGH/ISO/HEVC
  • Duration           : 1 h 58 min
  • Bit rate           : 14.6 Mb/s
  • Width            : 3 840 pixels
  • Height           : 1 608 pixels
  • Original height        : 2 160 pixels
  • Display aspect ratio       : 16:9
  • Frame rate mode        : Constant
  • Frame rate           : 23.976 (23976/1000) FPS
  • Color space          : YUV
  • Chroma subsampling       : 4:2:0 (Type 2)
  • Bit depth          : 10 bits
  • Bits/(Pixel*Frame)       : 0.099
  • Stream size          : 12.1 GiB (95%)
  • Writing library        : x265 3.0:[Linux][GCC 4.8.5][64 bit] 10bit
  • Encoding settings        : cpuid=1111039 / frame-threads=6 / wpp / no-pmode / no-pme / no-psnr / no-ssim / log-level=2 / input-csp=1 / input-res=3840x2160 / interlace=0 / total-frames=0 / level-idc=50 / high-tier=1 / uhd-bd=0 / ref=3 / no-allow-non-conformance / repeat-headers / annexb / no-aud / no-hrd / info / hash=0 / no-temporal-layers / no-open-gop / min-keyint=48 / keyint=48 / gop-lookahead=0 / bframes=4 / b-adapt=2 / b-pyramid / bframe-bias=0 / rc-lookahead=48 / lookahead-slices=4 / scenecut=40 / radl=0 / no-splice / no-intra-refresh / ctu=64 / min-cu-size=8 / rect / no-amp / max-tu-size=32 / tu-inter-depth=1 / tu-intra-depth=1 / limit-tu=0 / rdoq-level=2 / dynamic-rd=0.00 / no-ssim-rd / signhide / no-tskip / nr-intra=0 / nr-inter=0 / no-constrained-intra / strong-intra-smoothing / max-merge=3 / limit-refs=3 / limit-modes / me=2 / subme=3 / merange=57 / temporal-mvp / weightp / no-weightb / no-analyze-src-pics / deblock=0:0 / no-sao / no-sao-non-deblock / rd=4 / no-early-skip / no-rskip / no-fast-intra / no-tskip-fast / no-cu-lossless / no-b-intra / no-splitrd-skip / rdpenalty=0 / psy-rd=4.00 / psy-rdoq=10.00 / no-rd-refine / no-lossless / cbqpoffs=0 / crqpoffs=0 / rc=abr / bitrate=15000 / qcomp=0.60 / qpstep=1 / stats-write=0 / stats-read=0 / vbv-maxrate=22500 / vbv-bufsize=22500 / vbv-init=0.9 / ipratio=1.10 / pbratio=1.00 / aq-mode=0 / aq-strength=0.00 / no-cutree / zone-count=0 / no-strict-cbr / qg-size=32 / rc-grain / qpmax=69 / qpmin=0 / const-vbv / sar=1 / overscan=0 / videoformat=5 / range=0 / colorprim=9 / transfer=16 / colormatrix=9 / chromaloc=1 / chromaloc-top=2 / chromaloc-bottom=2 / display-window=0 / master-display=G(13250,34500)B(7500,3000)R(34000,16000)WP(15635,16450)L(10000000,50) / max-cll=932,303 / min-luma=0 / max-luma=1023 / log2-max-poc-lsb=8 / vui-timing-info / vui-hrd-info / slices=1 / no-opt-qp-pps / no-opt-ref-list-length-pps / no-multi-pass-opt-rps / scenecut-bias=0.05 / no-opt-cu-delta-qp / no-aq-motion / hdr / no-hdr-opt / no-dhdr10-opt / no-idr-recovery-sei / analysis-reuse-level=5 / scale-factor=0 / refine-intra=0 / refine-inter=0 / refine-mv=0 / refine-ctu-distortion=0 / no-limit-sao / ctu-info=0 / no-lowpass-dct / refine-analysis-type=0 / copy-pic=1 / max-ausize-factor=1.0 / no-dynamic-refine / no-single-sei / no-hevc-aq / qp-adaptation-range=1.00
  • Default            : Yes
  • Forced           : No
  • Color range          : Limited
  • Color primaries        : BT.2020
  • Transfer characteristics     : PQ
  • Matrix coefficients        : BT.2020 non-constant
  • Mastering display color primaries  : Display P3
  • Mastering display luminance    : min: 0.0050 cd/m2, max: 1000 cd/m2
  • Maximum Content Light Level    : 932 cd/m2
  • Maximum Frame-Average Light Level  : 303 cd/m2
  • Audio
  • ID             : 2
  • Format           : E-AC-3 JOC
  • Format/Info          : Enhanced AC-3 with Joint Object Coding
  • Commercial name        : Dolby Digital Plus with Dolby Atmos
  • Codec ID           : A_EAC3
  • Duration           : 1 h 58 min
  • Bit rate mode          : Constant
  • Bit rate           : 448 kb/s
  • Channel(s)           : 6 channels
  • Channel layout         : L R C LFE Ls Rs
  • Sampling rate          : 48.0 kHz
  • Frame rate           : 31.250 FPS (1536 SPF)
  • Compression mode         : Lossy
  • Stream size          : 381 MiB (3%)
  • Language           : English
  • Service kind         : Complete Main
  • Default            : Yes
  • Forced           : No
  • Complexity index         : 16
  • Number of dynamic objects      : 15
  • Bed channel count        : 1 channel
  • Bed channel configuration      : LFE
  • Text #1
  • ID             : 3
  • Format           : UTF-8
  • Codec ID           : S_TEXT/UTF8
  • Codec ID/Info          : UTF-8 Plain Text
  • Title            : English
  • Language           : English
  • Default            : No
  • Forced           : No
  • Text #2
  • ID             : 4
  • Format           : UTF-8
  • Codec ID           : S_TEXT/UTF8
  • Codec ID/Info          : UTF-8 Plain Text
  • Title            : English (SDH)
  • Language           : English
  • Default            : No
  • Forced           : No







分享到:  QQ好友和群QQ好友和群
收藏收藏
字幕下載網站---點這里進入
回復

使用道具 舉報

您需要登錄后才可以回帖 登錄 | 立即注冊

本版積分規則

QQ|Archiver|手機版|小黑屋|藍光電影網

GMT+8, 2019-11-25 04:20 , Processed in 0.056261 second(s), 20 queries .

Powered by Discuz! X3.4

© 2001-2017 Comsenz Inc.

快速回復 返回頂部 返回列表
湖北11选五任五预测