藍光電影網

 找回密碼
 立即注冊

QQ登錄

只需一步,快速開始

搜索
熱搜: 活動 交友 discuz
查看: 225|回復: 0
打印 上一主題 下一主題

[REMUX.HEVC] 破繭威龍 Lock.Up.1989.2160p.BluRay.REMUX.HEVC.DTS-HD.MA.5.1-FGT 57.86GB

[復制鏈接]

3萬

主題

3萬

帖子

4萬

積分

管理員

Rank: 9Rank: 9Rank: 9

積分
46044
跳轉到指定樓層
1#
發表于 2019-9-12 10:12:03 | 只看該作者 回帖獎勵 |倒序瀏覽 |閱讀模式


譯  名 破繭威龍 / Condena brutal / 黑獄災星
片  名 Lock Up
年  代 1989
產  地 美國
類  別 行動 / 驚悚 / 犯罪
語  言 英語
上映日期 1989-08-04(美國)
IMDb評分6.4/10 from 35447 users
IMDb鏈接http://www.imdb.com/title/tt0097770
豆瓣評分 7.0/10 from 1142 users
豆瓣鏈接 https://movie.douban.com/subject/1299316/
片  長 109分鐘
導  演 約翰·弗林 John Flynn
編  劇 Richard Smith / 杰布·斯圖爾特 Jeb Stuart / 亨利·羅森鮑姆 Henry Rosenbaum
主  演 西爾維斯特·史泰龍 Sylvester Stallone
     唐納德·薩瑟蘭 Donald Sutherland
     約翰·阿莫斯 John Amos
     索尼·蘭哈姆 Sonny Landham
     湯姆·塞茲摩爾 Tom Sizemore
     Frank McRae


標  簽 史泰龍 | 行動 | 美國 | 牢獄 | 犯罪 | 1989 | 美國電影 | 劇情

簡  介

  榜樣監犯弗蘭克?萊昂尼(西爾維斯特?史泰龍 Sylvester Stallone 飾)的刑期還剩半年,他定期可之外出與女友碰頭,這個昔日的修車技師看中了一處倉庫作為往后的修理部,普通的生活在期待著他。但是某天他忽然被轉移到情況卑劣的蓋特威牢獄,全因五年前他為了見師父兼養父的最初一面,從牢獄長莊古(唐納德?薩瑟蘭 Donald Sutherland 飾)的治下逃走。弗蘭克逃獄成功成為豪杰,而莊古卻蒙受懲罰懷恨在心。現在,莊古將弗蘭克重新把握,尋機報仇。
  弗蘭克遭到了莊古及手下的卑劣看待,但始終啞忍,而且漸漸在牢獄中結交了幾個朋友,包括始終想逃獄的囚房萬事通、消瘦年輕的“殺手”和獄中修理廠的負責人,死板的生活有了好轉,可是莊古始終冷靜注視著他,預備給他更大的疾苦……
  • Video #1
  • ID             : 1
  • Format           : HEVC
  • Format/Info          : High Efficiency Video Coding
  • Format profile         : Main <a href="/cdn-cgi/l/email-protection" class="__cf_email__" data-cfemail="e4d5d4a4a8d1cad5">[email protected]</a>@High
  • HDR format           : SMPTE ST 2086, HDR10 compatible
  • Codec ID           : V_MPEGH/ISO/HEVC
  • Duration           : 1 h 48 min
  • Bit rate           : 67.5 Mb/s
  • Width            : 3 840 pixels
  • Height           : 2 160 pixels
  • Display aspect ratio       : 16:9
  • Frame rate mode        : Constant
  • Frame rate           : 24.000 FPS
  • Color space          : YUV
  • Chroma subsampling       : 4:2:0 (Type 2)
  • Bit depth          : 10 bits
  • Bits/(Pixel*Frame)       : 0.339
  • Stream size          : 51.2 GiB (89%)
  • Title            : Lock.Up.1989.2160p.BluRay.REMUX.HEVC.DTS-HD.MA.5.1-FGT
  • Language           : English
  • Default            : Yes
  • Forced           : No
  • Color range          : Limited
  • Color primaries        : BT.2020
  • Transfer characteristics     : PQ
  • Matrix coefficients        : BT.2020 non-constant
  • Mastering display color primaries  : Display P3
  • Mastering display luminance    : min: 0.0001 cd/m2, max: 1000 cd/m2
  • Maximum Content Light Level    : 987 cd/m2
  • Maximum Frame-Average Light Level  : 407 cd/m2
  • Video #2
  • ID             : 2
  • Format           : HEVC
  • Format/Info          : High Efficiency Video Coding
  • Format profile         : Main <a href="/cdn-cgi/l/email-protection" class="__cf_email__" data-cfemail="f9c8c9b9b5ccd7c8">[email protected]</a>@High
  • HDR format           : SMPTE ST 2086, HDR10 compatible
  • Codec ID           : V_MPEGH/ISO/HEVC
  • Duration           : 1 h 48 min
  • Bit rate           : 3 264 kb/s
  • Width            : 1 920 pixels
  • Height           : 1 080 pixels
  • Display aspect ratio       : 16:9
  • Frame rate mode        : Constant
  • Frame rate           : 24.000 FPS
  • Color space          : YUV
  • Chroma subsampling       : 4:2:0 (Type 2)
  • Bit depth          : 10 bits
  • Bits/(Pixel*Frame)       : 0.066
  • Stream size          : 2.48 GiB (4%)
  • Title            : Lock.Up.1989.2160p.BluRay.REMUX.HEVC.DTS-HD.MA.5.1-FGT
  • Default            : No
  • Forced           : No
  • Color range          : Limited
  • Color primaries        : BT.2020
  • Transfer characteristics     : PQ
  • Matrix coefficients        : BT.2020 non-constant
  • Mastering display color primaries  : Display P3
  • Mastering display luminance    : min: 0.0001 cd/m2, max: 1000 cd/m2
  • Audio #1
  • ID             : 3
  • Format           : DTS XLL
  • Format/Info          : Digital Theater Systems
  • Commercial name        : DTS-HD Master Audio
  • Codec ID           : A_DTS
  • Duration           : 1 h 48 min
  • Bit rate mode          : Variable
  • Bit rate           : 3 982 kb/s
  • Channel(s)           : 6 channels
  • Channel layout         : C L R Ls Rs LFE
  • Sampling rate          : 48.0 kHz
  • Frame rate           : 93.750 FPS (512 SPF)
  • Bit depth          : 24 bits
  • Compression mode         : Lossless
  • Stream size          : 3.02 GiB (5%)
  • Title            : Lock.Up.1989.2160p.BluRay.REMUX.HEVC.DTS-HD.MA.5.1-FGT
  • Language           : English
  • Default            : Yes
  • Forced           : No
  • Audio #2
  • ID             : 4
  • Format           : DTS XLL
  • Format/Info          : Digital Theater Systems
  • Commercial name        : DTS-HD Master Audio
  • Codec ID           : A_DTS
  • Duration           : 1 h 48 min
  • Bit rate mode          : Variable
  • Bit rate           : 1 443 kb/s
  • Channel(s)           : 2 channels
  • Channel layout         : L R
  • Sampling rate          : 48.0 kHz
  • Frame rate           : 93.750 FPS (512 SPF)
  • Bit depth          : 24 bits
  • Compression mode         : Lossless
  • Stream size          : 1.10 GiB (2%)
  • Title            : Lock.Up.1989.2160p.BluRay.REMUX.HEVC.DTS-HD.MA.5.1-FGT
  • Language           : Spanish
  • Default            : No
  • Forced           : No
  • Text #1
  • ID             : 5
  • Format           : UTF-8
  • Codec ID           : S_TEXT/UTF8
  • Codec ID/Info          : UTF-8 Plain Text
  • Duration           : 1 h 42 min
  • Bit rate           : 41 b/s
  • Count of elements        : 1118
  • Stream size          : 31.0 KiB (0%)
  • Title            : English-SRT
  • Language           : English
  • Default            : Yes
  • Forced           : No
  • Text #2
  • ID             : 6
  • Format           : PGS
  • Muxing mode          : zlib
  • Codec ID           : S_HDMV/PGS
  • Codec ID/Info          : Picture based subtitle format used on BDs/HD-DVDs
  • Duration           : 1 h 42 min
  • Bit rate           : 22.2 kb/s
  • Count of elements        : 2254
  • Stream size          : 16.2 MiB (0%)
  • Title            : English-PGS
  • Language           : English
  • Default            : No
  • Forced           : No
  • Text #3
  • ID             : 7
  • Format           : PGS
  • Muxing mode          : zlib
  • Codec ID           : S_HDMV/PGS
  • Codec ID/Info          : Picture based subtitle format used on BDs/HD-DVDs
  • Duration           : 1 h 46 min
  • Bit rate           : 24.4 kb/s
  • Count of elements        : 2160
  • Stream size          : 18.6 MiB (0%)
  • Title            : Spanish-PGS
  • Language           : Spanish
  • Default            : No
  • Forced           : No
  • Menu
  • 00:00:00.000         : en:Chapter 01
  • 00:08:11.750         : en:Chapter 02
  • 00:18:44.500         : en:Chapter 03
  • 00:26:06.791         : en:Chapter 04
  • 00:32:52.791         : en:Chapter 05
  • 00:40:58.291         : en:Chapter 06
  • 00:54:47.791         : en:Chapter 07
  • 01:06:00.791         : en:Chapter 08
  • 01:15:18.958         : en:Chapter 09
  • 01:23:07.708         : en:Chapter 10
  • 01:36:07.708         : en:Chapter 11
  • 01:44:56.916         : en:Chapter 12













分享到:  QQ好友和群QQ好友和群
收藏收藏
字幕下載網站---點這里進入
回復

使用道具 舉報

您需要登錄后才可以回帖 登錄 | 立即注冊

本版積分規則

QQ|Archiver|手機版|小黑屋|藍光電影網

GMT+8, 2019-11-25 04:06 , Processed in 0.078738 second(s), 20 queries .

Powered by Discuz! X3.4

© 2001-2017 Comsenz Inc.

快速回復 返回頂部 返回列表
湖北11选五任五预测